Новости трекера
30-ДекНовый Адрес: RUTOR.INFO и RUTOR.RE
29-НояВечная блокировка в России
09-ОктПутеводитель по RUTOR.org: Правила, Руководства, Секреты

Скачать Двойная петля / Devotion (2022) WEB-DLRip-AVC | Jaskier торрентом бесплатно





Название: Двойная петля
Оригинальное название: Devotion
Год выпуска: 2022
Жанр: боевик, драма, военный, история

Выпущено: США, Black Label Media, STX Entertainment, Sony Pictures Entertainment
Режиссер: Джастин Диллард
В ролях: Джонатан Мэйджерс, Глен Пауэлл, Кристина Джексон, Томас Садоски, Дарен Кагасофф, Джо Джонас, Спенсер Невилл, Ник Харгроув, Бун Платт, Дин Дентон

Описание: Во время боевого задания одного из лётчиков подбивают над вражеской территорией. Командование не видит необходимости в спасательной операции. Перед летчиком встает выбор — выполнять приказ или попытаться спасти напарника.

Скачать семпл

Продолжительность: 02:19:01
Перевод: Профессиональный (многоголосый закадровый) | Jaskier
Субтитры: английские (full, SDH)

Качество видео: WEB-DLRip-AVC
Формат видео: MKV
Видео: MPEG-4 AVC, 3006 kbps, 1024x464 (2.2:1), 24.000 fps, 0.264 bit/pixel, [email protected]
Аудио 1: 48 kHz, AC3 Dolby Digital, 3/2 (L,C,R,l,r) + LFE ch, ~448 kbps | Многоголосый закадровый (Jaskier)
Аудио 2: 48 kHz, AC3 Dolby Digital, 3/2 (L,C,R,l,r) + LFE ch, ~448 kbps | Английский
Формат субтитров: softsub (SRT)
Реклама: Отсутствует
Релиз: vitolinform (aka Racketa)

MediaInfo
avs [info]: 1024x464p 1:1 @ 24/1 fps (cfr)
x264 [info]: using SAR=1/1
x264 [info]: using cpu capabilities: MMX2 SSE2Fast SSSE3 SSE4.2 AVX FMA3 BMI2 AVX2
x264 [info]: profile High, level 4.1, 4:2:0, 8-bit
x264 [info]: frame I:1400 Avg QP:15.38 size: 72282
x264 [info]: frame P:37982 Avg QP:16.94 size: 35743
x264 [info]: frame B:160814 Avg QP:18.67 size: 10419
x264 [info]: consecutive B-frames: 1.5% 2.1% 5.6% 9.4% 12.6% 46.8% 8.4% 1.5% 7.5% 0.8% 0.9% 0.5% 0.9% 1.1% 0.2% 0.1% 0.2%
x264 [info]: mb I I16..4: 12.4% 74.4% 13.2%
x264 [info]: mb P I16..4: 0.7% 21.4% 1.2% P16..4: 23.9% 30.8% 16.4% 0.0% 0.0% skip: 5.7%
x264 [info]: mb B I16..4: 0.2% 1.2% 0.1% B16..8: 35.9% 25.3% 7.5% direct: 5.2% skip:24.5% L0:47.4% L1:43.4% BI: 9.2%
x264 [info]: 8x8 transform intra:88.0% inter:54.7%
x264 [info]: direct mvs spatial:100.0% temporal:0.0%
x264 [info]: coded y,uvDC,uvAC intra: 94.2% 85.5% 78.4% inter: 31.3% 23.2% 10.5%
x264 [info]: i16 v,h,dc,p: 48% 4% 14% 35%
x264 [info]: i8 v,h,dc,ddl,ddr,vr,hd,vl,hu: 7% 8% 17% 10% 12% 11% 12% 10% 13%
x264 [info]: i4 v,h,dc,ddl,ddr,vr,hd,vl,hu: 26% 6% 12% 7% 11% 10% 10% 8% 10%
x264 [info]: i8c dc,h,v,p: 51% 26% 13% 10%
x264 [info]: Weighted P-Frames: Y:5.2% UV:3.1%
x264 [info]: ref P L0: 50.1% 17.6% 8.0% 5.5% 3.2% 3.7% 2.5% 2.1% 1.2% 1.5% 0.9% 1.2% 0.8% 1.0% 0.8% 0.0%
x264 [info]: ref B L0: 62.7% 13.4% 7.1% 3.8% 2.7% 2.4% 1.9% 1.2% 1.0% 1.0% 0.8% 0.8% 0.7% 0.4% 0.1%
x264 [info]: ref B L1: 92.6% 7.4%
x264 [info]: kb/s:3005.95
encoded 200196 frames, 5.57 fps, 3005.95 kb/s
=========================================
General
Unique ID : 135133350838371803686787478990666225417 (0x65A9BC977C8B959FC11C90B163965709)
Complete name : D:Dvojnaya.petlya.2022.WEB-DLRip.AVC.mkv
Format : Matroska
Format version : Version 4
File size : 3.79 GiB
Duration : 2 h 19 min
Overall bit rate : 3 904 kb/s
Movie name : Dvojnaya.petlya.2022.WEB-DLRip.AVC
Encoded date : UTC 2023-01-14 01:21:22
Writing application : mkvmerge v71.1.0 ('Fortitude') 64-bit
Writing library : libebml v1.4.4 + libmatroska v1.7.1
Attachments : poster.jpg / log.log

Video
ID : 1
Format : AVC
Format/Info : Advanced Video Codec
Format profile : [email protected]
Format settings : CABAC / 16 Ref Frames
Format settings, CABAC : Yes
Format settings, Reference frames : 16 frames
Codec ID : V_MPEG4/ISO/AVC
Duration : 2 h 19 min
Bit rate : 3 006 kb/s
Width : 1 024 pixels
Height : 464 pixels
Display aspect ratio : 2.2:1
Frame rate mode : Constant
Frame rate : 24.000 FPS
Color space : YUV
Chroma subsampling : 4:2:0
Bit depth : 8 bits
Scan type : Progressive
Bits/(Pixel*Frame) : 0.264
Stream size : 2.92 GiB (77%)
Title : Двойная петля / Devotion (2022)
Writing library : x264 core 164 r3100 ed0f7a6
Encoding settings : cabac=1 / ref=16 / deblock=1:-3:-3 / analyse=0x3:0x113 / me=umh / subme=11 / psy=1 / psy_rd=1.00:0.05 / mixed_ref=1 / me_range=32 / chroma_me=1 / trellis=2 / 8x8dct=1 / cqm=0 / deadzone=21,11 / fast_pskip=0 / chroma_qp_offset=-6 / threads=8 / lookahead_threads=2 / sliced_threads=0 / nr=0 / decimate=0 / interlaced=0 / bluray_compat=0 / constrained_intra=0 / bframes=16 / b_pyramid=2 / b_adapt=2 / b_bias=0 / direct=3 / weightb=1 / open_gop=0 / weightp=1 / keyint=240 / keyint_min=24 / scenecut=40 / intra_refresh=0 / rc_lookahead=40 / rc=crf / mbtree=0 / crf=18.0 / qcomp=0.60 / qpmin=0 / qpmax=69 / qpstep=4 / vbv_maxrate=50000 / vbv_bufsize=62500 / crf_max=0.0 / nal_hrd=none / filler=0 / ip_ratio=1.40 / pb_ratio=1.35 / aq=1:1.00
Language : English
Default : Yes
Forced : No

Audio #1
ID : 2
Format : AC-3
Format/Info : Audio Coding 3
Commercial name : Dolby Digital
Codec ID : A_AC3
Duration : 2 h 19 min
Bit rate mode : Constant
Bit rate : 448 kb/s
Channel(s) : 6 channels
Channel layout : L R C LFE Ls Rs
Sampling rate : 48.0 kHz
Frame rate : 31.250 FPS (1536 SPF)
Compression mode : Lossy
Stream size : 445 MiB (11%)
Title : MVO | Jaskier
Language : Russian
Service kind : Complete Main
Default : Yes
Forced : No

Audio #2
ID : 3
Format : AC-3
Format/Info : Audio Coding 3
Commercial name : Dolby Digital
Codec ID : A_AC3
Duration : 2 h 19 min
Bit rate mode : Constant
Bit rate : 448 kb/s
Channel(s) : 6 channels
Channel layout : L R C LFE Ls Rs
Sampling rate : 48.0 kHz
Frame rate : 31.250 FPS (1536 SPF)
Compression mode : Lossy
Stream size : 445 MiB (11%)
Title : English
Language : English
Service kind : Complete Main
Default : No
Forced : No

Text #1
ID : 4
Format : UTF-8
Codec ID : S_TEXT/UTF8
Codec ID/Info : UTF-8 Plain Text
Duration : 2 h 6 min
Bit rate : 46 b/s
Frame rate : 0.188 FPS
Count of elements : 1424
Stream size : 43.4 KiB (0%)
Title : Full
Language : English
Default : No
Forced : No

Text #2
ID : 5
Format : UTF-8
Codec ID : S_TEXT/UTF8
Codec ID/Info : UTF-8 Plain Text
Duration : 2 h 7 min
Bit rate : 52 b/s
Frame rate : 0.218 FPS
Count of elements : 1666
Stream size : 49.4 KiB (0%)
Title : SDH
Language : English
Default : No
Forced : No

Menu
00:00:00.000 : en:Chapter 01
00:05:55.146 : en:Chapter 02
00:16:04.631 : en:Chapter 03
00:24:10.116 : en:Chapter 04
00:29:07.956 : en:Chapter 05
00:40:14.414 : en:Chapter 06
00:49:49.072 : en:Chapter 07
00:56:15.709 : en:Chapter 08
01:06:05.507 : en:Chapter 09
01:11:36.171 : en:Chapter 10
01:16:36.721 : en:Chapter 11
01:24:02.083 : en:Chapter 12
01:34:06.563 : en:Chapter 13
01:42:00.412 : en:Chapter 14
01:53:06.828 : en:Chapter 15
02:02:53.248 : en:Chapter 16
02:09:33.106 : en:Chapter 17
Скриншот c названием фильма
Скриншоты


Оценка
КатегорияЗарубежные фильмы
Раздают
Качают
Добавлен14-01-2023, 09:43
Размер3.79 GB
Добавить в


Добавить комментарий

Оставить комментарий

Кликните на изображение чтобы обновить код, если он неразборчив
up