Новости трекера
30-ДекНовый Адрес: RUTOR.INFO и RUTOR.RE
29-НояВечная блокировка в России
09-ОктПутеводитель по RUTOR.org: Правила, Руководства, Секреты

Скачать Кот в сапогах 2: Последнее желание / Puss in Boots: The Last Wish (2022) WEB-DL-HEVC 2160p | 4K | SDR | P торрентом бесплатно





Название: Кот в сапогах 2: Последнее желание
Оригинальное название: Puss in Boots: The Last Wish
Год выпуска: 2022
Жанр: Мультфильм, фэнтези, комедия, приключения, полнометражный

Выпущено: США, Япония, Universal, DreamWorks Animation, Pacific Data Images (PDI)
Режиссер: Джоэль Кроуфорд, Хануэль Меркадо
В ролях: Антонио Бандерас, Сальма Хайек, Харви Гильен, Флоренс Пью, Джон Мулэйни, Вагнер Моура, Рэй Уинстон, Самсон Каё, Оливия Колман, Давайн Джой Рэндольф

О фильме: Рыцарь хвоста и шпаги, он же Кот в сапогах, героически побеждает грозного великана, но вместе с тем лишается восьмой из девяти своих жизней. Риск умереть окончательно и безвозвратно побуждает главного героя завязать с авантюрами и стать новой домашней кошкой Мамы Луны, где тот заводит дружбу с собакой-терапевтом Перро. Встретить тихую и спокойную старость не дает возобновившееся противостояние со своими заклятыми врагами — преступным кланом Златовласки и трех медведей. Имея в запасе последнюю жизнь, которая становится бесценной, Кот в сапогах обращается за помощью к своей давней возлюбленной Кисе Мягколапке.




Продолжительность: 01:42:22
Перевод: Профессиональный многоголосый

Файл
Контейнер: MKV
Качество: WEB-DL-HEVC 2160p
Видеоряд:Puss.in.Boots.The.Last.Wish.2022.2160p.MA.WEB-DL.x265.10bit.SDR.DDP5.1.
Видео: MPEG-H HEVC Video /24.5 Мбит/сек / 3840x2160 / 23.976 fps / 2.40:1 / Main [email protected]@High / 4:2:0 / 10 bits / SDR / BT.709
Аудио: AC3, 2 ch, 192 Kbps - русский (MVO, TVShows)
Аудио: E-AC3 JOC, 6 ch, 640 Kbps - английский
Субтитры: русские (full, SDH), английские (full, SDH), испанские
Реклама: Отсутствует
Релиз от: Optimus
Внимание:
Цитатаengie писал:
: ВНИМАНИЮ РОДИТЕЛЕЙ которые будут показывать данный мультфильм детям!

На тайминге 01:12:00 ненормативная лексика... у TVShows не хватило профессионализма чтобы смягчить эту реплику.


MediaInfo
Общее
Уникальный идентификатор : 200007954989775661082454244015000507804 (0x96782186CB5104F621B02D61039BD59C)
Полное имя : G:ВРЕМPuss in Boots- The Last Wish (2022) 4K.SDR.WEB-DL.2160p.mkv
Формат : Matroska
Версия формата : Version 4
Размер файла : 18,0 Гбайт
Продолжительность : 1 ч. 42 м.
Общий поток : 25,1 Мбит/сек
Название фильма : Puss in Boots: The Last Wish (2022)
Дата кодирования : UTC 2023-01-10 13:35:50
Программа кодирования : mkvmerge v51.0.0 ('I Wish') 64-bit
Библиотека кодирования : libebml v1.4.0 + libmatroska v1.6.2

Видео
Идентификатор : 1
Формат : HEVC
Формат/Информация : High Efficiency Video Coding
Профиль формата : [email protected]@High
Идентификатор кодека : V_MPEGH/ISO/HEVC
Продолжительность : 1 ч. 42 м.
Битрейт : 24,3 Мбит/сек
Ширина : 3 840 пикселей
Высота : 2 160 пикселей
Соотношение сторон : 16:9
Режим частоты кадров : Постоянный
Частота кадров : 23,976 (24000/1001) кадра/сек
Цветовое пространство : YUV
Субдискретизация насыщенности : 4:2:0 (Type 2)
Битовая глубина : 10 бит
Бит/(Пиксели*Кадры) : 0.122
Размер потока : 17,4 Гбайт (97%)
Заголовок : Puss in Boots: The Last Wish (2022)
Язык : English
Default : Да
Forced : Нет
Цветовой диапазон : Limited
Основные цвета : BT.709
Характеристики трансфера : BT.709
Коэффициенты матрицы : BT.709

Аудио #1
Идентификатор : 2
Формат : AC-3
Формат/Информация : Audio Coding 3
Коммерческое название : Dolby Digital
Идентификатор кодека : A_AC3
Продолжительность : 1 ч. 42 м.
Вид битрейта : Постоянный
Битрейт : 192 Кбит/сек
Каналы : 2 канала
Channel layout : L R
Частота : 48,0 КГц
Частота кадров : 31,250 кадров/сек (1536 SPF)
Метод сжатия : С потерями
Задержка видео : 1 с. 0 мс.
Размер потока : 141 Мбайт (1%)
Заголовок : MVO TVShows
Язык : Russian
Service kind : Complete Main
Default : Да
Forced : Нет

Аудио #2
Идентификатор : 3
Формат : E-AC-3 JOC
Формат/Информация : Enhanced AC-3 with Joint Object Coding
Коммерческое название : Dolby Digital Plus with Dolby Atmos
Идентификатор кодека : A_EAC3
Продолжительность : 1 ч. 42 м.
Вид битрейта : Постоянный
Битрейт : 640 Кбит/сек
Каналы : 6 каналов
Channel layout : L R C LFE Ls Rs
Частота : 48,0 КГц
Частота кадров : 31,250 кадров/сек (1536 SPF)
Метод сжатия : С потерями
Размер потока : 469 Мбайт (3%)
Заголовок : Original
Язык : English
Service kind : Complete Main
Default : Нет
Forced : Нет
Complexity index : 16
Number of dynamic objects : 15
Bed channel count : 1 канал
Bed channel configuration : LFE

Текст #1
Идентификатор : 4
Формат : UTF-8
Идентификатор кодека : S_TEXT/UTF8
Идентификатор кодека/Информация : UTF-8 Plain Text
Продолжительность : 1 ч. 41 м.
Битрейт : 104 бит/сек
Count of elements : 1692
Размер потока : 77,0 Кбайт (0%)
Заголовок : full
Язык : Russian
Default : Да
Forced : Нет

Текст #2
Идентификатор : 5
Формат : UTF-8
Идентификатор кодека : S_TEXT/UTF8
Идентификатор кодека/Информация : UTF-8 Plain Text
Продолжительность : 1 ч. 41 м.
Битрейт : 126 бит/сек
Count of elements : 2101
Размер потока : 94,4 Кбайт (0%)
Заголовок : SDH
Язык : Russian
Default : Нет
Forced : Нет

Текст #3
Идентификатор : 6
Формат : UTF-8
Идентификатор кодека : S_TEXT/UTF8
Идентификатор кодека/Информация : UTF-8 Plain Text
Продолжительность : 1 ч. 40 м.
Битрейт : 56 бит/сек
Count of elements : 1619
Размер потока : 41,8 Кбайт (0%)
Заголовок : full
Язык : English
Default : Нет
Forced : Нет

Текст #4
Идентификатор : 7
Формат : UTF-8
Идентификатор кодека : S_TEXT/UTF8
Идентификатор кодека/Информация : UTF-8 Plain Text
Продолжительность : 1 ч. 42 м.
Битрейт : 74 бит/сек
Count of elements : 2170
Размер потока : 56,2 Кбайт (0%)
Заголовок : SDH
Язык : English
Default : Нет
Forced : Нет

Текст #5
Идентификатор : 8
Формат : UTF-8
Идентификатор кодека : S_TEXT/UTF8
Идентификатор кодека/Информация : UTF-8 Plain Text
Продолжительность : 1 ч. 40 м.
Битрейт : 56 бит/сек
Count of elements : 1517
Размер потока : 41,9 Кбайт (0%)
Заголовок : Latin American
Язык : Spanish
Default : Нет
Forced : Нет
Скриншоты



Релиз заменен на без рассинхрона


Оценка
КатегорияМультипликация
Раздают
Качают
Добавлен12-01-2023, 11:07
Размер17.97 GB
Добавить в


Добавить комментарий

Оставить комментарий

Кликните на изображение чтобы обновить код, если он неразборчив
up