Новости трекера
30-ДекНовый Адрес: RUTOR.INFO и RUTOR.RE
29-НояВечная блокировка в России
09-ОктПутеводитель по RUTOR.org: Правила, Руководства, Секреты

Скачать Максим Оса / Maksym Osa (2022) WEB-DLRip-AVC | UKR торрентом бесплатно





Информация о фильме
Название: Максим Оса
Оригинальное название: Maksym Osa
Год выхода: 2022
Жанр: история, триллер

Режиссер: Мирослав Латык
В ролях: Василий Кухарский, Ольга Макеева, Сергей Деньга, Владимир Гурин, Альбина Корж, Владимир Ющенко, Сергей Шадрин, Богдан Бенюк, Михаил Ильенко, Мирослав Латык

О фильме:
Украина, 1636 год. Неизвестные напали на батальон казаков, которые перевозили золото польского короля. Один из казаков, Максим Оса, пытается найти пропавший груз, но вскоре становится главным подозреваемым.




Страна: Украина
Студия: Hanzhonkov Film Studio
Продолжительность: 01:40:20
Перевод: Не требуется (оригинал)
Язык: Украинский

Файл
Формат: MKV
Качество: WEB-DLRip-AVC
Видео: MPEG-4 AVC, 764x320 at 24.000 fps, 958 kbps
Аудио: AAC LC SBR (HE-AAC), 48.0 kHz, 2 ch, 80 kbps
Субтитры: Украинские (Full), Английские (Full)

MediaInfo
General
Unique ID : 179402581501321430482506218419226380861 (0x86F7AE2D7951883D871B6345A4C78A3D)
Complete name : Maksym.Osa.2022.WEB-DLRip-AVC.mkv
Format : Matroska
Format version : Version 4
File size : 746 MiB
Duration : 1 h 40 min
Overall bit rate : 1 039 kb/s
Encoded date : UTC 2023-01-11 05:38:17
Writing application : mkvmerge v8.5.0 ('Vanishing Act') 32bit
Writing library : libebml v1.3.1 + libmatroska v1.4.2

Video
ID : 1
Format : AVC
Format/Info : Advanced Video Codec
Format profile : [email protected]
Format settings : CABAC / 14 Ref Frames
Format settings, CABAC : Yes
Format settings, RefFrames : 14 frames
Codec ID : V_MPEG4/ISO/AVC
Duration : 1 h 40 min
Bit rate : 958 kb/s
Width : 764 pixels
Height : 320 pixels
Display aspect ratio : 2.40:1
Frame rate mode : Constant
Frame rate : 24.000 FPS
Color space : YUV
Chroma subsampling : 4:2:0
Bit depth : 8 bits
Scan type : Progressive
Bits/(Pixel*Frame) : 0.163
Stream size : 687 MiB (92%)
Writing library : x264 core 133 r2334 a3ac64b
Encoding settings : cabac=1 / ref=14 / deblock=1:-1:-1 / analyse=0x3:0x113 / me=umh / subme=10 / psy=1 / psy_rd=0.96:0.00 / mixed_ref=1 / me_range=32 / chroma_me=1 / trellis=2 / 8x8dct=1 / cqm=0 / deadzone=21,11 / fast_pskip=0 / chroma_qp_offset=-2 / threads=6 / lookahead_threads=1 / sliced_threads=0 / nr=0 / decimate=0 / interlaced=0 / bluray_compat=0 / constrained_intra=0 / bframes=13 / b_pyramid=2 / b_adapt=2 / b_bias=0 / direct=3 / weightb=1 / open_gop=0 / weightp=2 / keyint=240 / keyint_min=24 / scenecut=40 / intra_refresh=0 / rc=2pass / mbtree=0 / bitrate=958 / ratetol=1.0 / qcomp=0.66 / qpmin=0 / qpmax=69 / qpstep=4 / cplxblur=20.0 / qblur=0.5 / ip_ratio=1.16 / pb_ratio=1.30 / aq=2:0.96
Language : Ukrainian
Default : Yes
Forced : No

Audio
ID : 2
Format : AAC LC SBR
Format/Info : Advanced Audio Codec Low Complexity with Spectral Band Replication
Commercial name : HE-AAC
Format settings : Explicit
Codec ID : A_AAC-2
Duration : 1 h 40 min
Bit rate : 80.0 kb/s
Channel(s) : 2 channels
Channel layout : L R
Sampling rate : 48.0 kHz
Frame rate : 23.438 FPS (2048 SPF)
Compression mode : Lossy
Stream size : 57.4 MiB (8%)
Language : Ukrainian
Default : Yes
Forced : No

Text #1
ID : 3
Format : UTF-8
Codec ID : S_TEXT/UTF8
Codec ID/Info : UTF-8 Plain Text
Duration : 1 h 38 min
Bit rate : 60 b/s
Count of elements : 926
Stream size : 43.2 KiB (0%)
Title : Full
Language : Ukrainian
Default : No
Forced : No

Text #2
ID : 4
Format : UTF-8
Codec ID : S_TEXT/UTF8
Codec ID/Info : UTF-8 Plain Text
Duration : 1 h 38 min
Bit rate : 38 b/s
Count of elements : 931
Stream size : 27.9 KiB (0%)
Title : Full
Language : English
Default : No
Forced : No
Скриншоты



Оценка
Категория---
Раздают
Качают
Добавлен11-01-2023, 08:38
Размер745.85 MB
Добавить в

Связанные раздачи
Добавлен Название Размер Пиры
21 окт 22 D Хитровка [01-08 из 08] (2008) WEBRip 720p 0C 3.56 GB S L
10 янв 23 D Горюнов [S01-02] (2013-2020) WEBRip-AVC 0C 29.18 GB S L
28 окт 22 D Выхожу тебя искать [S01-02] (2009-2012) WEB-DLRip-AVC 0C 17.39 GB S L
07 янв 23 D Одинокий волк [01-24 из 24] (2012) WEBRip 1080p 0C 46.15 GB S L
28 дек 22 D Ярость [01-16 из 16] (2011) WEBRip-AVC 0C 10.33 GB S L

Добавить комментарий

Оставить комментарий

Кликните на изображение чтобы обновить код, если он неразборчив
up