Новости трекера
30-ДекНовый Адрес: RUTOR.INFO и RUTOR.RE
29-НояВечная блокировка в России
09-ОктПутеводитель по RUTOR.org: Правила, Руководства, Секреты

Скачать Меню / The Menu (2022) WEB-DL-HEVC 2160p | 4K | SDR | HDRezka Studio, TVShows торрентом бесплатно





Название: Меню
Оригинальное название: The Menu
Год выпуска: 2022
Жанр: Триллер, комедия, сатира, чёрная комедия

Выпущено: США, Alienworx Productions, Hyperobject Industries
Режиссер: Марк Майлод
В ролях: Рэйф Файнс, Аня Тейлор-Джой, Николас Холт, Хонг Чау, Джанет МакТир, Пол Адельштейн, Джон Легуизамо, Эйми Карреро, Рид Бирни, Джудит Лайт

Описание: Молодая пара в компании других богатеев отправляется на эксклюзивный ужин в знаменитый ресторан, который находится на небольшом острове. Одно изысканное блюдо сменяет другое, когда выясняется, что шеф-повар и его команда неплохо изучили сегодняшних гостей и прекрасно осведомлены не только об их вкусовых предпочтениях. И кроме того, меню содержит неприятные сюрпризы.




Продолжительность: 01:47:07
Перевод 1: Профессиональный (многоголосый закадровый) | HDRezka Studio
Перевод 2: Профессиональный (многоголосый закадровый) | TVShows

Качество: WEB-DL-HEVC 2160p
Формат видео: MKV
Видео: MPEG-H HEVC, 24.6 Мбит/с, 3840x2160, 23.976 кадр/с
Аудио 1: АС3, 6 ch, 448 Кбит/с - Профессиональный многоголосый (HDRezka Studio)
Аудио 2: АС3, 2 ch, 192 Кбит/с - Профессиональный многоголосый (TVShows)
Аудио 3: АС3, 6 ch, 384 Кбит/с - Украинский дубляж (Postmodern)
Аудио 4: E-AC3+Atmos, 6 ch, 768 Кбит/с - Английский
Субтитры: Pусские (forced), украинские (forced, full), английские (full, SDH)
Реклама: Отсутствует
Релиз: schumaher

MediaInfo
Общее
Уникальный идентификатор : 74474045788510064050027114488691527919 (0x38072DF2D1B1FC58C8E2CF3C524190EF)
Полное имя : R:The.Menu.2022.x265.WEB-DL.2160p.SDR.mkv
Формат : Matroska
Версия формата : Version 4
Размер файла : 19,8 Гбайт
Продолжительность : 1 ч. 47 м.
Общий поток : 26,4 Мбит/сек
Дата кодирования : UTC 2023-01-08 10:45:05
Программа кодирования : mkvmerge v73.0.0 ('25 or 6 to 4') 64-bit
Библиотека кодирования : libebml v1.4.4 + libmatroska v1.7.1

Видео
Идентификатор : 1
Формат : HEVC
Формат/Информация : High Efficiency Video Coding
Профиль формата : [email protected]@High
Идентификатор кодека : V_MPEGH/ISO/HEVC
Продолжительность : 1 ч. 47 м.
Битрейт : 24,6 Мбит/сек
Ширина : 3 840 пикселей
Высота : 2 160 пикселей
Соотношение сторон : 16:9
Режим частоты кадров : Постоянный
Частота кадров : 23,976 (24000/1001) кадра/сек
Цветовое пространство : YUV
Субдискретизация насыщенности : 4:2:0 (Type 2)
Битовая глубина : 10 бит
Бит/(Пиксели*Кадры) : 0.124
Размер потока : 18,4 Гбайт (93%)
Язык : English
Default : Да
Forced : Да
Цветовой диапазон : Limited
Основные цвета : BT.709
Характеристики трансфера : BT.709
Коэффициенты матрицы : BT.709

Аудио #1
Идентификатор : 2
Формат : AC-3
Формат/Информация : Audio Coding 3
Коммерческое название : Dolby Digital
Идентификатор кодека : A_AC3
Продолжительность : 1 ч. 47 м.
Вид битрейта : Постоянный
Битрейт : 448 Кбит/сек
Каналы : 6 каналов
Channel layout : L R C LFE Ls Rs
Частота : 48,0 КГц
Частота кадров : 31,250 кадров/сек (1536 SPF)
Метод сжатия : С потерями
Размер потока : 343 Мбайт (2%)
Заголовок : HDRezka Studio
Язык : Russian
Service kind : Complete Main
Default : Да
Forced : Да

Аудио #2
Идентификатор : 3
Формат : AC-3
Формат/Информация : Audio Coding 3
Коммерческое название : Dolby Digital
Идентификатор кодека : A_AC3
Продолжительность : 1 ч. 47 м.
Вид битрейта : Постоянный
Битрейт : 192 Кбит/сек
Каналы : 2 канала
Channel layout : L R
Частота : 48,0 КГц
Частота кадров : 31,250 кадров/сек (1536 SPF)
Метод сжатия : С потерями
Размер потока : 147 Мбайт (1%)
Заголовок : TVSHows
Язык : Russian
Service kind : Complete Main
Default : Нет
Forced : Нет

Аудио #3
Идентификатор : 4
Формат : AC-3
Формат/Информация : Audio Coding 3
Коммерческое название : Dolby Digital
Идентификатор кодека : A_AC3
Продолжительность : 1 ч. 47 м.
Вид битрейта : Постоянный
Битрейт : 384 Кбит/сек
Каналы : 6 каналов
Channel layout : L R C LFE Ls Rs
Частота : 48,0 КГц
Частота кадров : 31,250 кадров/сек (1536 SPF)
Метод сжатия : С потерями
Размер потока : 294 Мбайт (1%)
Язык : Ukrainian
Service kind : Complete Main
Default : Нет
Forced : Нет

Аудио #4
Идентификатор : 5
Формат : E-AC-3 JOC
Формат/Информация : Enhanced AC-3 with Joint Object Coding
Коммерческое название : Dolby Digital Plus with Dolby Atmos
Идентификатор кодека : A_EAC3
Продолжительность : 1 ч. 47 м.
Вид битрейта : Постоянный
Битрейт : 768 Кбит/сек
Каналы : 6 каналов
Channel layout : L R C LFE Ls Rs
Частота : 48,0 КГц
Частота кадров : 31,250 кадров/сек (1536 SPF)
Метод сжатия : С потерями
Задержка видео : 83 мс.
Размер потока : 588 Мбайт (3%)
Язык : English
Service kind : Complete Main
Default : Нет
Forced : Нет
Complexity index : 16
Number of dynamic objects : 15
Bed channel count : 1 канал
Bed channel configuration : LFE

Текст #1
Идентификатор : 6
Формат : UTF-8
Идентификатор кодека : S_TEXT/UTF8
Идентификатор кодека/Информация : UTF-8 Plain Text
Продолжительность : 1 ч. 38 м.
Битрейт : 2 бит/сек
Частота кадров : 0,006 кадр/сек
Count of elements : 35
Размер потока : 1,94 Кбайт (0%)
Заголовок : Forced
Язык : Russian
Default : Да
Forced : Да

Текст #2
Идентификатор : 7
Формат : UTF-8
Идентификатор кодека : S_TEXT/UTF8
Идентификатор кодека/Информация : UTF-8 Plain Text
Продолжительность : 1 ч. 38 м.
Битрейт : 2 бит/сек
Частота кадров : 0,005 кадр/сек
Count of elements : 31
Размер потока : 1,51 Кбайт (0%)
Заголовок : Forced
Язык : Ukrainian
Default : Нет
Forced : Нет

Текст #3
Идентификатор : 8
Формат : UTF-8
Идентификатор кодека : S_TEXT/UTF8
Идентификатор кодека/Информация : UTF-8 Plain Text
Продолжительность : 1 ч. 46 м.
Битрейт : 105 бит/сек
Частота кадров : 0,277 кадр/сек
Count of elements : 1766
Размер потока : 81,9 Кбайт (0%)
Заголовок : Full
Язык : Ukrainian
Default : Нет
Forced : Нет

Текст #4
Идентификатор : 9
Формат : UTF-8
Идентификатор кодека : S_TEXT/UTF8
Идентификатор кодека/Информация : UTF-8 Plain Text
Продолжительность : 1 ч. 37 м.
Битрейт : 71 бит/сек
Частота кадров : 0,295 кадр/сек
Count of elements : 1733
Размер потока : 51,4 Кбайт (0%)
Язык : English
Default : Нет
Forced : Нет

Текст #5
Идентификатор : 10
Формат : UTF-8
Идентификатор кодека : S_TEXT/UTF8
Идентификатор кодека/Информация : UTF-8 Plain Text
Продолжительность : 1 ч. 40 м.
Битрейт : 79 бит/сек
Частота кадров : 0,315 кадр/сек
Count of elements : 1895
Размер потока : 58,6 Кбайт (0%)
Заголовок : SDH
Язык : English
Default : Нет
Forced : Нет

Меню
00:00:00.000 : en:Chapter 01
00:06:11.000 : en:Chapter 02
00:09:26.000 : en:Chapter 03
00:12:07.000 : en:Chapter 04
00:14:56.000 : en:Chapter 05
00:21:29.000 : en:Chapter 06
00:28:06.000 : en:Chapter 07
00:35:36.000 : en:Chapter 08
00:38:13.000 : en:Chapter 09
00:42:36.000 : en:Chapter 10
00:48:10.000 : en:Chapter 11
00:54:57.000 : en:Chapter 12
01:01:20.000 : en:Chapter 13
01:04:43.000 : en:Chapter 14
01:08:22.000 : en:Chapter 15
01:11:12.000 : en:Chapter 16
01:13:59.000 : en:Chapter 17
01:16:01.000 : en:Chapter 18
01:20:48.000 : en:Chapter 19
01:23:22.000 : en:Chapter 20
01:28:00.000 : en:Chapter 21
01:33:32.000 : en:Chapter 22
01:39:11.000 : en:Chapter 23
01:40:08.000 : en:Chapter 24
Скриншоты




Оценка
КатегорияЗарубежные фильмы
Раздают
Качают
Добавлен8-01-2023, 15:40
Размер19.77 GB
Добавить в


Добавить комментарий

Оставить комментарий

Кликните на изображение чтобы обновить код, если он неразборчив
up