Новости трекера
30-ДекНовый Адрес: RUTOR.INFO и RUTOR.RE
29-НояВечная блокировка в России
09-ОктПутеводитель по RUTOR.org: Правила, Руководства, Секреты

Скачать Молли Магуайерс / The Molly Maguires (1970) BDRip 720p от msltel | P, P2 торрентом бесплатно





Название: Молли Магуайерс
Оригинальное название: The Molly Maguires
Страна: США
Жанр: драма, история

Год выпуска: 1970
Продолжительность: 02:04:39
Режиссер: Мартин Ритт
В ролях: Шон Коннери, Ричард Харрис, Саманта Эггар, Фрэнк Финлей, Энтони Зербе, Бетел Лесли, Арт Ланд, Филип Бурнюф, Энтони Костильо, Брендан Диллон, Фрэнсис Хефлин, Джон Алдерсон, Мэлаки МакКорт, Сьюзэн Гудман

О фильме: Действие этой исторической ленты, основанной на реальных фактах, разворачивается в Пенсильвании в конце 19 столетия. «Молли Магуайерс» - так называлось тайной общество ирландских эмигрантов, созданное для борьбы с теми, кто предоставлял им работу, но взамен считал возможным издеваться, унижать, а иногда и …убивать. Враги «Молли Магуайерс», беспощадные владельцы шахт, нанимают детектива, чтобы тот тайно внедрился в ряды бунтовщиков и сдал впоследствии всех ключевых лидеров. Шон Коннери исполняет роль жёсткого и подозрительного главаря «Молли», устраивающего новичку бесконечные проверки на верность. Однако после значительного времени работы под прикрытием новичок начинает задаваться вопросом на чьей он стороне...




Качество: BDRip 720p
Формат: MKV
Видео: MPEG-4 AVC, 6600 Кбит/с, 1280x534, 23.976 кадр/с
Аудио 1: русский, AC3, 192 kbps, 2 ch, 48 kHz [закадровый многоголосый, Paramount Channel]
Аудио 2: русский, AC3, 192 kbps, 1 ch, 48 kHz [закадровый двухголосый, Премьер Видео Фильм]
Аудио 3: английский, AC3, 640 kbps, 6 ch, 48 kHz [оригинал]
Субтитры 1: русские (SRT)
Субтитры 2: английские (SRT)
Главы/чаптеры
MediaInfo
Общее
Уникальный идентификатор : 163121874377584749165275787732775922269 (0x7AB82157B9C09532A649E1A40318EA5D)
Полное имя : D:VideoМолли Магуайерс.1970.BDRip 720p msltel.mkv
Формат : Matroska
Версия формата : Version 4
Размер файла : 6,64 Гбайт
Продолжительность : 2 ч. 4 м.
Общий поток : 7 626 Кбит/сек
Название фильма : Молли Магуайерс.1970.BDRip 720p msltel
Дата кодирования : UTC 2021-06-09 04:41:45
Программа кодирования : mkvmerge v44.0.0 ('Domino') 64-bit
Библиотека кодирования : libebml v1.3.10 + libmatroska v1.5.2

Видео
Идентификатор : 1
Формат : AVC
Формат/Информация : Advanced Video Codec
Профиль формата : [email protected]
Настройки формата : CABAC / 12 Ref Frames
Параметр CABAC формата : Да
Параметр RefFrames формата : 12 кадров
Идентификатор кодека : V_MPEG4/ISO/AVC
Продолжительность : 2 ч. 4 м.
Битрейт : 6 600 Кбит/сек
Ширина : 1 280 пикселей
Высота : 534 пикселя
Соотношение сторон : 2,40:1
Режим частоты кадров : Постоянный
Частота кадров : 23,976 (24000/1001) кадра/сек
Цветовое пространство : YUV
Субдискретизация насыщенности : 4:2:0
Битовая глубина : 8 бит
Тип развёртки : Прогрессивная
Бит/(Пиксели*Кадры) : 0.403
Размер потока : 5,75 Гбайт (87%)
Библиотека кодирования : x264 core 161 r3018 db0d417
Настройки программы : cabac=1 / ref=12 / deblock=1:-3:-3 / analyse=0x3:0x113 / me=umh / subme=10 / psy=1 / psy_rd=1.00:0.00 / mixed_ref=1 / me_range=32 / chroma_me=1 / trellis=2 / 8x8dct=1 / cqm=0 / deadzone=21,11 / fast_pskip=0 / chroma_qp_offset=-2 / threads=12 / lookahead_threads=2 / sliced_threads=0 / nr=0 / decimate=0 / interlaced=0 / bluray_compat=0 / constrained_intra=0 / bframes=9 / b_pyramid=2 / b_adapt=2 / b_bias=0 / direct=1 / weightb=1 / open_gop=0 / weightp=2 / keyint=230 / keyint_min=23 / scenecut=40 / intra_refresh=0 / rc_lookahead=40 / rc=crf / mbtree=0 / crf=16.9 / qcomp=0.60 / qpmin=0 / qpmax=69 / qpstep=4 / vbv_maxrate=50000 / vbv_bufsize=62500 / crf_max=0.0 / nal_hrd=none / filler=0 / ip_ratio=1.40 / pb_ratio=1.30 / aq=3:1.00
Язык : English
Default : Да
Forced : Нет

Аудио #1
Идентификатор : 2
Формат : AC-3
Формат/Информация : Audio Coding 3
Коммерческое название : Dolby Digital
Идентификатор кодека : A_AC3
Продолжительность : 2 ч. 4 м.
Вид битрейта : Постоянный
Битрейт : 192 Кбит/сек
Каналы : 2 канала
Channel layout : L R
Частота : 48,0 КГц
Частота кадров : 31,250 кадров/сек (1536 SPF)
Метод сжатия : С потерями
Размер потока : 171 Мбайт (3%)
Заголовок : MVO Paramount Channel
Язык : Russian
Service kind : Complete Main
Default : Да
Forced : Нет

Аудио #2
Идентификатор : 3
Формат : AC-3
Формат/Информация : Audio Coding 3
Коммерческое название : Dolby Digital
Идентификатор кодека : A_AC3
Продолжительность : 2 ч. 4 м.
Вид битрейта : Постоянный
Битрейт : 192 Кбит/сек
Каналы : 1 канал
Channel layout : C
Частота : 48,0 КГц
Частота кадров : 31,250 кадров/сек (1536 SPF)
Метод сжатия : С потерями
Размер потока : 171 Мбайт (3%)
Заголовок : DVO Премьер Видео Фильм
Язык : Russian
Service kind : Complete Main
Default : Нет
Forced : Нет

Аудио #3
Идентификатор : 4
Формат : AC-3
Формат/Информация : Audio Coding 3
Коммерческое название : Dolby Digital
Идентификатор кодека : A_AC3
Продолжительность : 2 ч. 4 м.
Вид битрейта : Постоянный
Битрейт : 640 Кбит/сек
Каналы : 6 каналов
Channel layout : L R C LFE Ls Rs
Частота : 48,0 КГц
Частота кадров : 31,250 кадров/сек (1536 SPF)
Метод сжатия : С потерями
Размер потока : 571 Мбайт (8%)
Заголовок : original
Язык : English
Service kind : Complete Main
Default : Нет
Forced : Нет

Текст #1
Идентификатор : 5
Формат : UTF-8
Идентификатор кодека : S_TEXT/UTF8
Идентификатор кодека/Информация : UTF-8 Plain Text
Продолжительность : 1 ч. 48 м.
Битрейт : 78 бит/сек
Count of elements : 884
Размер потока : 62,0 Кбайт (0%)
Заголовок : русские
Язык : Russian
Default : Нет
Forced : Нет

Текст #2
Идентификатор : 6
Формат : UTF-8
Идентификатор кодека : S_TEXT/UTF8
Идентификатор кодека/Информация : UTF-8 Plain Text
Продолжительность : 1 ч. 48 м.
Битрейт : 46 бит/сек
Count of elements : 953
Размер потока : 36,9 Кбайт (0%)
Заголовок : английские
Язык : English
Default : Нет
Forced : Нет

Меню
00:00:00.000 : en:Chapter 1
00:12:13.024 : en:Chapter 2
00:19:23.037 : en:Chapter 3
00:28:48.769 : en:Chapter 4
00:34:56.553 : en:Chapter 5
00:41:10.635 : en:Chapter 6
00:48:26.737 : en:Chapter 7
00:55:35.207 : en:Chapter 8
01:04:13.767 : en:Chapter 9
01:10:03.449 : en:Chapter 10
01:15:04.375 : en:Chapter 11
01:18:53.020 : en:Chapter 12
01:26:55.419 : en:Chapter 13
01:32:58.990 : en:Chapter 14
01:39:28.004 : en:Chapter 15
01:51:46.033 : en:Chapter 16
01:58:37.861 : en:Chapter 17

Скриншоты
Сравнение с исходником

Исходник vs Рип





Оценка
КатегорияЗарубежные фильмы
Раздают
Качают
Добавлен5-01-2023, 11:01
Размер6.64 GB
Добавить в


Добавить комментарий

Оставить комментарий

Кликните на изображение чтобы обновить код, если он неразборчив
up