Новости трекера
30-ДекНовый Адрес: RUTOR.INFO и RUTOR.RE
29-НояВечная блокировка в России
09-ОктПутеводитель по RUTOR.org: Правила, Руководства, Секреты

Скачать Животное / The Animal (2001) WEB-DLRip-AVC от DoMiNo | D торрентом бесплатно


Животное / The Animal (2001) WEB-DLRip-AVC от DoMiNo | D


Информация о фильме
Название: Животное
Оригинальное название: The Animal
Год выхода: 2001
Жанр: комедия
Режиссер: Люк Гринфилд
В ролях: Роб Шнайдер, Коллин Хэскелл, Джон К. МакГинли, Эдвард Эснер, Майкл Кейтон, Луис Ломбарди, Гай Торри, Боб Рубин, Пилар Шнайдер, Скотт Уилсон

О фильме:
Какие только странные пути порой не ведут к исполнению желаний! Простак Марвин всю жизнь мечтал стать крутым полицейским. Но тщетно. Не было счастья, да несчастье помогло: попав в автокатастрофу, герой был спасен от смерти слегка чокнутым доктором Уайлдером.

Вышедшие из строя внутренние органы Марвина тот заменил на органы разных животных, благодаря чему его пациент не только выздоровел, но и обрел таланты своих доноров. Используя новые возможности, герой наконец становится настоящим суперкопом, но... Вместе с отличными рефлексами, силой и выносливостью Марвин получил от зверей и их дремучие инстинкты, внезапно и всегда не вовремя пробуждающиеся!

комедия
HD_VIDEO : 1
IMDB_RATING : 4.80
ITUNEXTC : mpaa|PG-13|300|
Language : und
MEDIA_TYPE : 9
ORIGINAL_TITLE : The Animal
PRODUCER : Бэрри Бернарди, Карр Д'Анджело, Тодд Гарнер, Том Брэди, Дерек Дочи, Джек Джиррапуто, Том МакНалти, Нэйтан Талберт Рейманн, Адам Сэндлер, Джон Шнайдер, Роб Шнайдер
RATING : 6.252
WRITER : Том Брэди, Роб Шнайдер

Video
ID : 1
Format : AVC
Format/Info : Advanced Video Codec
Format profile : [email protected]
Format settings : CABAC / 10 Ref Frames
Format settings, CABAC : Yes
Format settings, ReFrames : 10 frames
Codec ID : V_MPEG4/ISO/AVC
Duration : 1 h 19 min
Bit rate : 2 409 kb/s
Width : 1 024 pixels
Height : 576 pixels
Display aspect ratio : 16:9
Frame rate mode : Constant
Frame rate : 25.000 FPS
Color space : YUV
Chroma subsampling : 4:2:0
Bit depth : 8 bits
Scan type : Progressive
Bits/(Pixel*Frame) : 0.163
Stream size : 1.31 GiB (91%)
Title : RIP_BY_-=DoMiNo=-
Writing library : x264 core 152 r2851M ba24899
Encoding settings : cabac=1 / ref=10 / deblock=1:-3:-3 / analyse=0x3:0x133 / me=umh / subme=10 / psy=1 / psy_rd=1.00:0.03 / mixed_ref=1 / me_range=32 / chroma_me=1 / trellis=2 / 8x8dct=1 / cqm=0 / deadzone=21,11 / fast_pskip=1 / chroma_qp_offset=-3 / threads=6 / lookahead_threads=1 / sliced_threads=0 / nr=0 / decimate=1 / interlaced=0 / bluray_compat=0 / constrained_intra=0 / bframes=9 / b_pyramid=2 / b_adapt=2 / b_bias=0 / direct=3 / weightb=1 / open_gop=0 / weightp=2 / keyint=250 / keyint_min=25 / scenecut=40 / intra_refresh=0 / rc_lookahead=60 / rc=2pass / mbtree=1 / bitrate=2409 / ratetol=1.0 / qcomp=0.60 / qpmin=0 / qpmax=69 / qpstep=4 / cplxblur=20.0 / qblur=0.5 / ip_ratio=1.40 / aq=1:1.00
Language : English
Default : Yes
Forced : No
Color range : Limited
Color primaries : BT.709
Transfer characteristics : BT.709
Matrix coefficients : BT.709

Audio
ID : 2
Format : AC-3
Format/Info : Audio Coding 3
Codec ID : A_AC3
Duration : 1 h 19 min
Bit rate mode : Constant
Bit rate : 192 kb/s
Channel(s) : 2 channels
Channel positions : Front: L R
Sampling rate : 48.0 kHz
Frame rate : 31.250 FPS (1536 SPF)
Bit depth : 16 bits
Compression mode : Lossy
Stream size : 110 MiB (7%)
Title : AC3 2.0 192Kbps (Дубляж)
Language : Russian
Service kind : Complete Main
Default : Yes
Forced : No

Text #1
ID : 3
Format : UTF-8
Codec ID : S_TEXT/UTF8
Codec ID/Info : UTF-8 Plain Text
Language : Russian
Default : Yes
Forced : No

Text #2
ID : 4
Format : UTF-8
Codec ID : S_TEXT/UTF8
Codec ID/Info : UTF-8 Plain Text
Language : English
Default : No
Forced : No

Menu
00:00:00.000 : :Start
00:02:42.480 : :The Field Trip
00:04:18.160 : :Obstacle Course
00:07:33.960 : :Marvin Meets Rianna
00:09:53.840 : :Badger Milk
00:10:34.960 : :'Make It Better'
00:12:41.080 : :The Accident
00:15:21.960 : :The Running Man
00:17:34.359 : :Playing Frisbee
00:18:11.280 : :Balloon Trick
00:20:29.920 : :The Press Conference
00:23:23.480 : :Dr. Wilder
00:24:31.520 : :'You Were Born Here'
00:28:36.840 : :'Hey Baby'
00:35:04.760 : :The Animal Shelter
00:35:43.960 : :Troule With Control
00:39:31.200 : :Nelly the Goat
00:48:05.720 : :Mayor's Charity Event
00:49:07.680 : :Marvin the Hero
00:55:12.960 : :A Date With Rianna
00:58:18.040 : :End of a Perfect Evening
01:02:32.040 : :Killer Cow Suspect
01:12:28.400 : :Marvin's Hutch
01:13:45.520 : :Sisk's Posse[/spoiler]

[spoiler=Скриншоты][/spoiler]


Оценка
КатегорияЗарубежные фильмы
Раздают
Качают
Добавлен7-07-2024, 20:54
Размер1.45 GB
Добавить в


Добавить комментарий

Оставить комментарий

    • Смайлы и люди
      Животные и природа
      Еда и напитки
      Активность
      Путешествия и места
      Предметы
      Символы
      Флаги
Кликните на изображение чтобы обновить код, если он неразборчив
up